לא נשבר
Unbroken.2014.1080p.WEB-DL.DD5.1.H264-RARBG

לא נשבר / Unbroken.2014.1080p.WEB-DL.DD5.1.H264-RARBG

שם:
לא נשבר
סוג:
וידאו
קטגוריה:
סרטים HD
גודל:
4.61 GB
זורעים:
8
מורידים:
4
הועלה ע"י
אנונימי
תאריך העלאה:
01.01.70 - 02:00
סיפור חייו הבלתי נתפס של האלוף האולימפי והלוחם האמיץ לואי זמפריני. בן למשפחת מהגרים איטלקית קשת יום, הגיע לגדולות בענף הריצות הבינוניות וייצג את ארה"ב באולימפיאדת בברלין. במהלך מלחמת העולם השנייה, גויס לשירות הצבא האמריקני. במהלך הפעילות הצבאית, מטוס הקרב בו לחם נפגע מאש האויב והתרסק בלב האוקיינוס השקט. שם, בלב הים החל מסע ההישרדות המפרך של לואי ושניים מחבריו לצוות שנמשך 47 ימים על גבי רפסודת ההצלה. ביום ה-47 נפלו השלושה בשבי היפני, בו הועברו בין מחנות שבויים ועברו עינויים קשים פיזיים, מנטליים ונפשיים.
סיפור חייו הבלתי נתפס של האלוף האולימפי והלוחם האמיץ לואי זמפריני. בן למשפחת מהגרים איטלקית קשת יום, הגיע לגדולות בענף הריצות הבינוניות וייצג את ארה"ב באולימפיאדת בברלין. במהלך מלחמת העולם השנייה, גויס לשירות הצבא האמריקני. במהלך הפעילות הצבאית, מטוס הקרב בו לחם נפגע מאש האויב והתרסק בלב האוקיינוס השקט. שם, בלב הים החל מסע ההישרדות המפרך של לואי ושניים מחבריו לצוות שנמשך 47 ימים על גבי רפסודת ההצלה. ביום ה-47 נפלו השלושה בשבי היפני, בו הועברו בין מחנות שבויים ועברו עינויים קשים פיזיים, מנטליים ונפשיים.

[mediainfo]
Video
ID : 1
Format : AVC
Format/Info : Advanced Video Codec
Format profile : High@L4.0
Format settings, CABAC : Yes
Format settings, ReFrames : 5 frames
Codec ID : V_MPEG4/ISO/AVC
Duration : 2h 17mn
Bit rate : 4 319 Kbps
Width : 1 916 pixels
Height : 794 pixels
Display aspect ratio : 2.40:1
Frame rate mode : Constant
Frame rate : 23.976 fps
Color space : YUV
Chroma subsampling : 4:2:0
Bit depth : 8 bits
Scan type : Progressive
Bits/(Pixel*Frame) : 0.118
Stream size : 4.15 GiB (90%)
Title : Unbroken.2014.1080p.WEB-DL.DD5.1.H264-RARBG
Language : English
Default : Yes
Forced : No
Color primaries : BT.709
Transfer characteristics : BT.709
Matrix coefficients : BT.709
Color range : Limited
Audio
ID : 2
Format : AC-3
Format/Info : Audio Coding 3
Mode extension : CM (complete main)
Format settings, Endianness : Big
Codec ID : A_AC3
Duration : 2h 17mn
Bit rate mode : Constant
Bit rate : 384 Kbps
Channel(s) : 6 channels
Channel positions : Front: L C R, Side: L R, LFE
Sampling rate : 48.0 KHz
Bit depth : 16 bits
Compression mode : Lossy
Stream size : 377 MiB (8%)
Title : Unbroken.2014.1080p.WEB-DL.DD5.1.H264-RARBG
Language : English
Default : Yes
Forced : No
Text
ID : 3
Format : UTF-8
Codec ID : S_TEXT/UTF8
Codec ID/Info : UTF-8 Plain Text
Language : English
Default : Yes
Forced : No
Menu
00:00:00.000 : en:1
00:08:34.000 : en:2
00:13:25.000 : en:3
00:20:07.000 : en:4
00:27:18.000 : en:5
00:31:42.000 : en:6
00:37:24.000 : en:7
00:44:48.000 : en:8
00:49:58.000 : en:9
00:59:50.000 : en:10
01:10:13.000 : en:11
01:17:05.000 : en:12
01:21:52.000 : en:13
01:28:29.000 : en:14
01:32:43.000 : en:15
01:38:32.000 : en:16
01:44:11.000 : en:17
01:53:12.000 : en:18
02:01:33.000 : en:19
02:11:38.000 : en:20
[/mediainfo]