הנשים בקומה השישית (2010)
The.Women.On.The.6th.Floor.[2010].BRRip.XviD-CODY

הנשים בקומה השישית (2010) / The.Women.On.The.6th.Floor.[2010].BRRip.XviD-CODY

שם:
הנשים בקומה השישית (2010)
סוג:
וידאו
קטגוריה:
סרטים HD
גודל:
702.2 MiB
זורעים:
0
מורידים:
0
הועלה ע"י
roni
תאריך העלאה:
15.11.12 - 14:16

מריה הצעירה והיפה, רק הגיעה לפריז מבורגוס, הישר לדודתה המתגוררת בקומת המשרתות, יחד עם כל עובדות הבית הספרדיות.


1960 ז'אן לואי ג'ובר בעל הבית חי בבית הזה כבר שלושה דורות, חיים שלווים, אמידים, יציבים ומשעממים.


הוא ברוקר, אשתו אשת חברה ושני בניו שוהים בפנימיות.


כשהמשרתת הותיקה של המשפחה נוטשת, ז'אן מגלה את הנשים בקומה השישית טרזה, כרמן, דולורס, קונספסיון ובמיוחד את מריה מלאת שמחת החיים, שהולכת לשנות את חייו והרבה.

General
Complete name : The Women On The 6th Floor [2010] BRRip XviD - CODY.avi
Format : AVI
Format/Info : Audio Video Interleave
File size : 702 MiB
Duration : 1h 41mn
Overall bit rate : 962 Kbps

Video
ID : 0
Format : MPEG-4 Visual
Format profile : Advanced [email protected]
Format settings, BVOP : 4
Format settings, QPel : No
Format settings, GMC : No warppoints
Format settings, Matrix : Default (H.263)
Codec ID : XVID
Codec ID/Hint : XviD
Duration : 1h 41mn
Bit rate : 825 Kbps
Width : 720 pixels
Height : 392 pixels
Display aspect ratio : 16:9
Frame rate : 25.000 fps
Color space : YUV
Chroma subsampling : 4:2:0
Bit depth : 8 bits
Scan type : Progressive
Compression mode : Lossy
Bits/(Pixel*Frame) : 0.117
Stream size : 601 MiB (86%)
Writing library : XviD 1.2.1 (UTC 2008-12-04)

Audio
ID : 1
Format : MPEG Audio
Format version : Version 1
Format profile : Layer 3
Codec ID : 55
Codec ID/Hint : MP3
Duration : 1h 41mn
Bit rate mode : Constant
Bit rate : 128 Kbps
Channel(s) : 2 channels
Sampling rate : 48.0 KHz
Compression mode : Lossy
Stream size : 93.3 MiB (13%)
Alignment : Aligned on interleaves
Interleave, duration : 40 ms (1.00 video frame)
Writing library : LAME3.99
Encoding settings : -m s -V 4 -q 2 -lowpass 17 -b 128




IMDB link: http://www.imdb.com/title/tt1805297/



Subtitles included : English, Romanian, Russian, Spanish




Please seed at least 1,5:1. This way this torrent has a chance to survive !




Thanks. Enjoy !!