שלושת המוסקטרים
The.Three.Musketeers.(2011).DVDRip.XviD-MAX

שלושת המוסקטרים / The.Three.Musketeers.(2011).DVDRip.XviD-MAX

שם:
שלושת המוסקטרים
סוג:
וידאו
קטגוריה:
סרטים DVDRip
גודל:
1.57 GiB
זורעים:
0
מורידים:
0
הועלה ע"י
אנונימי
תאריך העלאה:
03.02.12 - 17:39
גרסה חדשה לסיפור ההרפתקאות הקלאסי על שלושת האבירים, ובראשם דארטנייאן. הסרט, כמו הספר, מתרחש בצרפת מלאת התככים והבגידות של ראשית המאה ה-17, בה מולך לואי ה-13 חלש האופי, בעוד השליט בפועל הוא החשמן רישלייה.
הפעם, הסרט מתאר כיצד דארטנייאן הצעיר נחוש לאחד מחדש את חבריו המוסקטרים, כיום בטלנים חסרי מעש, כדי למנוע משני נוכלים ערמומיים להפיל את שלטון המלוכה הצרפתי ולהתחיל מלחמה באירופה.
Screens:

http://www.postimg.com/image/60000/photo-59084.jpg


http://www.postimg.com/image/60000/photo-59085.jpg


http://www.postimg.com/image/60000/photo-59086.jpg


http://www.postimg.com/image/60000/photo-59087.jpg


ScreenCaps:

http://www.postimg.com/image/60000/photo-59088.jpg


The Three Musketeers (2011) DVDRip XviD-MAX
Format : AVI
Format/Info : Audio Video Interleave
Format profile : OpenDML
File size : 1.56 GiB
Duration : 1h 50mn
Overall bit rate : 2 025 Kbps
Writing application : VirtualDubMod 1.5.10.2 (build 2542/release)
Writing library : VirtualDubMod build 2542/release
Original source form : MAX TORRENTZ
Copyright : SIGISMUNT

Video
ID : 0
Format : MPEG-4 Visual
Format profile : [email protected]
Format settings, BVOP : Yes
Format settings, QPel : No
Format settings, GMC : No warppoints
Format settings, Matrix : Custom
Muxing mode : Packed bitstream
Codec ID : XVID
Codec ID/Hint : XviD
Duration : 1h 50mn
Bit rate : 1 635 Kbps
Width : 720 pixels
Height : 304 pixels
Display aspect ratio : 2.35:1
Frame rate : 23.976 fps
Resolution : 24 bits
Colorimetry : 4:2:0
Scan type : Progressive
Bits/(Pixel*Frame) : 0.312
Stream size : 1.26 GiB (81%)
Writing library : XviD 58

Audio
ID : 1
Format : AC-3
Format/Info : Audio Coding 3
Codec ID : 2000
Duration : 1h 50mn
Bit rate mode : Constant
Bit rate : 384 Kbps
Channel(s) : 6 channels
Channel positions : Front: L C R, Surround: L R, LFE
Sampling rate : 48.0 KHz
Stream size : 304 MiB (19%)
Alignment : Aligned on interleaves
Interleave, duration : 64 ms (1.53 video frames)
Interleave, preload duration : 192 ms

http://www.imdb.com/title/tt1509767/


Source: DVD (perfect a/v/sync quality,sample included)
This torrent is not seedbox supported,please seed it to the MAX

Note: We need anything you can offer as early releases,seedboxes,links,accounts,etc
please contact us on piratepedia[@]msn/gmail.com or our website torentz 3xforum ro

The Three Musketeers (2011) DVDRip XviD-MAX Torrent Free Download

http://thepiratebay.org/user/extremezone/0/7


How To Get Your Maxspeed (uTorrent)

Torrent Client - Preferences - Bandwidth - Number of connections - Set aprox. 500 for each
Torrent Client - Preferences - BiTorrent - Protocol Encryption - Forced
Bandwidth Allocation - High (Set download/upload limit - Unlimited)
Stop Other Active Torrents - Start downloading and wait for connections.
Enjoy and Seed for at least 1:1 ratio. Don't forget to say thanks/leave reviews.
Before downloading you should check/google search sample "release name""sample".
Greets to all actual/future p2p/scene QUALITY groups and affiliate websites.
Don't trust IMDb robot or bad ratings,always watch some trailers first.
Ignore stupid comments/fake/mislabeled/no-DVDrips/CAM/TS/RAR uploads.
Please spread this release/torrent to your friends/forums/etc.
If you need translation subs visit some subtitles sites.
Report if you see online streaming or other spam links.
Recommended movie player VLC PLAYER.