הרץ במבוך
The.Maze.Runner.2014.1080p.BluRay.x264-SPARKS

הרץ במבוך / The.Maze.Runner.2014.1080p.BluRay.x264-SPARKS

שם:
הרץ במבוך
סוג:
וידאו
קטגוריה:
סרטים HD
גודל:
7.94 GB
זורעים:
1
מורידים:
7
הועלה ע"י
הפיראט הירוק
תאריך העלאה:
09.01.15 - 19:28
כשתומס מתעורר במעלית, הדבר היחיד שהוא מצליח לזכור הוא שמו הפרטי. במהרה הוא מגלה שהוא לכוד עם חבורת נערים בתוך מתחם ענקי מוקף חומות אבן. אף אחד אינו יודע למה ואיך הם הגיעו לשם
כשתומס מתעורר במעלית, הדבר היחיד שהוא מצליח לזכור הוא שמו הפרטי. במהרה הוא מגלה שהוא לכוד עם חבורת נערים בתוך מתחם ענקי מוקף חומות אבן. אף אחד אינו יודע למה ואיך הם הגיעו לשם , הם רק יודעים שבכל בוקר נפתחות בחומה דלתות אבן שמובילות החוצה אל המבוך שסובב אותם, ממנו אף אחד מעולם לא חזר .
תומאס מצטרף לכוח עם נערים נוספים לא רק על מנת להימלט מהמבוך, אלא לפתור את החידה ולחשוף את הסוד של מי הביא אותם לשם ומדוע.

Screenshots:
The.Maze.Runner.2014.1080p.BluRay.x264-SPARKS
Release.Date: 30.11.2014
Video.......: X264 8512Kbps
Frame.Rate..: 23.976
Resolution..: 1920x800
Audio.......: DTS 1509Kbps 6ch
Language....: English
Length......: 1h 53mn
Source......: Retail BluRay
Size........: 8131MB
Subtitles...: English, Dutch, Italian, Arabic, Czech, Hungarian, Polish, Slovak, Turkish.
IMDb: http://www.imdb.com/title/tt1790864
ALLiANCE - iMARS
ASCii/NFO: pH7 of SiLK
The.Maze.Runner.2014.1080p.BluRay.x264-SPARKS
Release.Date: 30.11.2014
Video.......: X264 8512Kbps
Frame.Rate..: 23.976
Resolution..: 1920x800
Audio.......: DTS 1509Kbps 6ch
Language....: English
Length......: 1h 53mn
Source......: Retail BluRay
Size........: 8131MB
Subtitles...: English, Dutch, Italian, Arabic, Czech, Hungarian, Polish, Slovak, Turkish.
IMDb: http://www.imdb.com/title/tt1790864
ALLiANCE - iMARS
ASCii/NFO: pH7 of SiLK
[mediainfo]
Video
ID : 1
Format : AVC
Format/Info : Advanced Video Codec
Format profile : High@L4.1
Format settings, CABAC : Yes
Format settings, ReFrames : 5 frames
Codec ID : V_MPEG4/ISO/AVC
Duration : 1h 53mn
Bit rate : 8 512 Kbps
Width : 1 920 pixels
Height : 800 pixels
Display aspect ratio : 2.40:1
Frame rate mode : Constant
Frame rate : 23.976 fps
Color space : YUV
Chroma subsampling : 4:2:0
Bit depth : 8 bits
Scan type : Progressive
Bits/(Pixel*Frame) : 0.231
Stream size : 6.59 GiB (83%)
Writing library : x264 core 142 r2479 dd79a61
Encoding settings : cabac=1 / ref=5 / deblock=1:0:0 / analyse=0x3:0x133 / me=umh / subme=7 / psy=1 / psy_rd=1.00:0.00 / mixed_ref=1 / me_range=16 / chroma_me=1 / trellis=1 / 8x8dct=1 / cqm=0 / deadzone=21,11 / fast_pskip=0 / chroma_qp_offset=-2 / threads=18 / lookahead_threads=3 / sliced_threads=0 / nr=0 / decimate=1 / interlaced=0 / bluray_compat=0 / constrained_intra=0 / bframes=3 / b_pyramid=2 / b_adapt=1 / b_bias=0 / direct=1 / weightb=1 / open_gop=0 / weightp=2 / keyint=250 / keyint_min=23 / scenecut=40 / intra_refresh=0 / rc_lookahead=40 / rc=2pass / mbtree=1 / bitrate=8512 / ratetol=1.0 / qcomp=0.60 / qpmin=0 / qpmax=69 / qpstep=4 / cplxblur=20.0 / qblur=0.5 / ip_ratio=1.40 / aq=1:1.00
Language : English
Default : Yes
Forced : No
Audio
ID : 2
Format : DTS
Format/Info : Digital Theater Systems
Format profile : ES
Mode : 16
Format settings, Endianness : Big
Codec ID : A_DTS
Duration : 1h 53mn
Bit rate mode : Constant
Bit rate : 1 509 Kbps
Channel(s) : 6 channels
Channel positions : Front: L C R, Side: L R, LFE
Sampling rate : 48.0 KHz
Bit depth : 24 bits
Compression mode : Lossy
Stream size : 1.20 GiB (15%)
Language : English
Default : Yes
Forced : No