שרלוק הולמס משחק הצללים להורדה | 1.32 GiB | סרטים DVDRip
שרלוק הולמס משחק הצללים
Sherlock.Holmes.A.Game.of.Shadows.(2011).DVDRip.XviD-MAX

שרלוק הולמס משחק הצללים / Sherlock.Holmes.A.Game.of.Shadows.(2011).DVDRip.XviD-MAX

שם:
שרלוק הולמס משחק הצללים
סוג:
וידאו
קטגוריה:
סרטים DVDRip
גודל:
1.32 GiB
זורעים:
0
מורידים:
0
הועלה ע"י
אנונימי
תאריך העלאה:
26.04.12 - 22:55

שרלוק הולמס היה תמיד האיש הכי חכם בחדר, חקירתו של הולמס לתוך העלילה של מוריארטי הופכת למסוכנת יותר כפי שהוא מוביל אותו ואת ווטסון מחוץ ללונדון צרפת, גרמניה, ולבסוף לשווייץ. אבל מוריארטי ערמומי הוא תמיד צעד אחד קדימה, נע קרוב להשלמת תוכנית המסוכנת והמאיימת שלו. אם הוא יצליח, הוא לא רק יבא לעצמו עושר עצום, אך הכוח לשנות את ההיסטוריה.

שרלוק הולמס היה תמיד האיש הכי חכם בחדר ... עד עכשיו. יש מוח קרימינלי חדש - פרופ 'ג'יימס מוריארטי (ג'ארד האריס) - ולא רק שהוא שווה באופן אינטלקטואלי להולמס, אבל יכולת הרוע שלו, יחד עם היעדר מוחלט של מצפון, יכול לתת לו יתרון על פני הבלש הנודע. ברחבי העולם, לשבור את כותרות החדשות: שערורייה המורידה איל כותנה הודי, סוחר אופיום סינית מת ממנת יתר לכאורה, פיגועי בשטרסבורג ובווינה, מותו של איל הפלדה האמריקאי ... אף אחד לא רואה את החוט המקשר בין אירועים אקראיים לכאורה - אף אחד, זאת אומרת, חוץ משרלוק הולמס הגדול, אשר הבחין בדפוס מכוונת של הרג והרס. במרכזו יושב עכביש מרושע להפליא: מוריארטי. חקירתו של הולמס לתוך העלילה של מוריארטי הופכת למסוכנת יותר כפי שהוא מוביל אותו ואת ווטסון מחוץ ללונדון צרפת, גרמניה, ולבסוף לשווייץ. אבל מוריארטי ערמומי הוא תמיד צעד אחד קדימה, נע קרוב להשלמת תוכנית המסוכנת והמאיימת שלו. אם הוא יצליח, הוא לא רק יבא לעצמו עושר עצום, אך הכוח לשנות את ההיסטוריה.


Screens:

http://www.postimg.com/image/68000/photo-67294.jpg

http://www.postimg.com/image/68000/photo-67295.jpg

http://www.postimg.com/image/68000/photo-67296.jpg

http://www.postimg.com/image/68000/photo-67297.jpg


ScreenCaps:

http://www.postimg.com/image/68000/photo-67300.jpg


Sherlock Holmes A Game of Shadows (2011) DVDRip XviD-MAX
Format : AVI
Format/Info : Audio Video Interleave
Format profile : OpenDML
File size : 1.31 GiB
Duration : 2h 8mn
Overall bit rate : 1 456 Kbps
Writing application : VirtualDubMod 1.5.10.2 (build 2542/release)
Writing library : VirtualDubMod build 2542/release
Original source form : MAX TORRENTZ
Copyright : SIGISMUNT

Video
ID : 0
Format : MPEG-4 Visual
Format profile : [email protected]
Format settings, BVOP : Yes
Format settings, QPel : No
Format settings, GMC : No warppoints
Format settings, Matrix : Default (MPEG)
Codec ID : XVID
Codec ID/Hint : XviD
Duration : 2h 8mn
Bit rate : 1 131 Kbps
Width : 640 pixels
Height : 272 pixels
Display aspect ratio : 2.35:1
Frame rate : 23.976 fps
Resolution : 24 bits
Colorimetry : 4:2:0
Scan type : Progressive
Bits/(Pixel*Frame) : 0.271
Stream size : 1.02 GiB (78%)
Writing library : XviD 1.2.1 (UTC 2008-12-04)

Audio
ID : 1
Format : AC-3
Format/Info : Audio Coding 3
Codec ID : 2000
Duration : 2h 8mn
Bit rate mode : Constant
Bit rate : 320 Kbps
Channel(s) : 6 channels
Channel positions : Front: L C R, Surround: L R, LFE
Sampling rate : 48.0 KHz
Stream size : 295 MiB (22%)
Alignment : Aligned on interleaves
Interleave, duration : 64 ms (1.53 video frames)
Interleave, preload duration : 192 ms

Source: DVD (perfect a/v/sync quality,sample included)
This torrent is not seedbox supported,please seed it to the MAX

Note: We need anything you can offer as early releases,seedboxes,links,accounts,etc
please contact us on piratepedia[@]msn/gmail.com or our website torentz 3xforum ro

Sherlock Holmes A Game of Shadows (2011) DVDRip XviD-MAX Torrent Free Download

http://thepiratebay.se/user/extremezone/0/7