שרלוק עונה 1 המלאה
Sherlock-Season.1.(2010).720p.MKV.x264.AC3.BRrip

שרלוק עונה 1 המלאה / Sherlock-Season.1.(2010).720p.MKV.x264.AC3.BRrip

שם:
שרלוק עונה 1 המלאה
סוג:
וידאו
קטגוריה:
סדרות HD
גודל:
6.05 GiB
זורעים:
0
מורידים:
0
הועלה ע"י
אנונימי
תאריך העלאה:
21.02.14 - 18:23

מיני סדרה מבית היוצר של "דוקטור הו" על הבלש הפרטי שרלוק הולמס מתוך ספריו הקלאסיים של ארתור קונאן דויל. המיני סדרה (בת 3 חלקים) מספרת את הרפתקאותיו של שרלוק הולמס בעולם מודרני עם עוזרו הנאמן ד"ר ווטסון. 

סדרה מעולה!! בנדיקט קאמברבאץ' ההורס בתפקיד שתפור עליו. מומלץ. 
- שירלי 


Three-part BBC mini-series offering a fast-paced modernised adaptation of the classic detective novels by Arthur Conan Doyle. Laptops, mobile phones and the internet are the new tools for crime in a modern London under threat from serial killers, bombings and gang warfare. Sherlock Holmes (Benedict Cumberbatch), the most brilliant intellect of his generation, has a unique analytical brain unlike anyone else's, and staves off the ever-present threat of boredom by solving crimes, the more intricate and baffling the better. Meanwhile, his friend and flatmate John Watson (Martin Freeman) is an army doctor invalided home from the battlefields of Afghanistan. Rupert Graves, Una Stubbs and Zoe Telford co-star. Episodes are: 'A Study in Pink', 'The Blind Banker' and 'The Great Game'.

Starring: Benedict Cumberbatch, Martin Freeman, Rupert Graves
Directors: Euros Lyn, Paul McGuigan


http://www.imdb.com/title/tt1475582/




http://stpicz.com/0048_vlcsnap_2013_02_24_20h23m20s37_wdqx.png

http://stpicz.com/8347_vlcsnap_2013_02_24_20h26m21s49_pd0g.png

http://stpicz.com/8088_vlcsnap_2013_02_24_20h28m01s1_8dub.png

http://stpicz.com/7079_vlcsnap_2013_02_24_18h35m30s108_u5oh.png

http://stpicz.com/5843_vlcsnap_2013_02_24_17h48m48s250_z1a4.png

http://stpicz.com/0352_vlcsnap_2013_02_24_20h30m03s227_a1en.png

http://stpicz.com/9073_vlcsnap_2013_02_24_17h51m06s91_yoa9.png



General
Unique ID: 170201618818578987796275864083258754677 (0x800BA3B175FD16F0B290078530BD4675)
Complete name: E:Sherlock (2010) S01 (A Study in Pink) 720p MKV x264 AC3 BRrip [Pioneer]
Format: Matroska
Format version: Version 2
File size: 2.10 GiB
Duration: 1h 28mn
Overall bit rate: 3 419 Kbps
Writing application: HandBrake 0.9.8
Writing library: libmkv 0.6.5

Video
ID: 1
Format: AVC
Format/Info: Advanced Video Codec
Format profile: [email protected]
Format settings, CABAC: Yes
Format settings, ReFrames: 5 frames
Codec ID: V_MPEG4/ISO/AVC
Duration: 1h 28mn
Bit rate: 2 903 Kbps
Width: 1 280 pixels
Height: 720 pixels
Display aspect ratio: 16:9
Frame rate mode: Constant
Frame rate: 25.000 fps
Color space: YUV
Chroma subsampling: 4:2:0
Bit depth: 8 bits
Scan type: Progressive
Bits/(Pixel*Frame): 0.126
Stream size: 1.79 GiB (85%)
Writing library: x264 core 120
Language: English
Default: Yes
Forced: No
Color primaries: BT.709
Transfer characteristics: BT.709
Matrix coefficients: BT.709

Audio
ID: 2
Format: AC-3
Format/Info: Audio Coding 3
Mode extension: CM (complete main)
Format settings, Endianness: Big
Codec ID: A_AC3
Duration: 1h 28mn
Bit rate mode: Constant
Bit rate: 448 Kbps
Channel(s): 6 channels
Channel positions: Front: L C R, Side: L R, LFE
Sampling rate: 48.0 KHz
Bit depth: 16 bits
Compression mode: Lossy
Stream size: 282 MiB (13%)
Language: English
Default: Yes
Forced: No