לוסי
Lucy.2014.1080p.BluRay.x264-SPARKS

לוסי / Lucy.2014.1080p.BluRay.x264-SPARKS

שם:
לוסי
סוג:
וידאו
קטגוריה:
סרטים HD
גודל:
6.63 GB
זורעים:
0
מורידים:
0
הועלה ע"י
אנונימי
תאריך העלאה:
09.01.15 - 23:49
סקרלט ג'והנסון היא סטודנטית אמריקאית המתגוררת בטיוואן ונקלעת לעסקה אפלה. תקלה בעסקה מאפשרת לה להפוך את הקערה על פיה, והיא הופכת ללוחמת בעלת יכולות מעבר להיגיון האנושי, באמצעותן היא מתקדמת בצעדי ענק למימוש 100% מיכולות המוח שלה.
לוסי (סקרלט ג'והנסון) היא סטודנטית אמריקאית המתגוררת בטיוואן ונקלעת לעסקה אפלה בעל כורחה. תקלה בעסקה מאפשרת לה להפוך את הקערה על שוביה, והיא הופכת ללוחמת חסרת רחמים, בעלת יכולות מעבר להיגיון האנושי, באמצעותן היא מתקדמת בצעדי ענק למימוש 100% מיכולות המוח שלה. לוסי חוברת לד"ר סמואל נורמן (מורגן פרימן) מומחה בתחום חקר המח, אשר מאחוריו עשרות שנים של מחקר בלתי פתור בהן הוא בוחן את האפשרות - מה האדם יוכל להגשים במידה וישתמש בכל יכולות המח האנושי. ד"ר נורמן הוא האדם היחיד אשר יכול לעזור ללוסי להבין לאן כל זה הולך.

Lucy 2014 1080p BluRay x264-SPARKSLucy.2014.1080p.BluRay.x264-SPARKS

Release.Date: 21.11.2014
Video.......: X264 8995Kbps
Frame.Rate..: 23.976
Resolution..: 1920x808
Audio.......: DTS 1509Kbps 6ch
Language....: English
Length......: 1h 29mn
Source......: Retail BluRay
Size........: 6709MB
Subtitles...: English forced, English, Czech, Hungarian, Polish, Russian, Thai, Turkish, Bulgarian, Croatian, Greek, Hebrew, Korean, Romanian, Chinese, Indonesian, Estonian, Latvian, Lithuanian, Slovenian, Ukrainian.

IMDb: http://www.imdb.com/title/tt2872732

ALLiANCE - iMARS

ASCii/NFO: pH7 of SiLKMediaInfo

Video
ID : 1
Format : AVC
Format/Info : Advanced Video Codec
Format profile : High@L4.1
Format settings, CABAC : Yes
Format settings, ReFrames : 5 frames
Codec ID : V_MPEG4/ISO/AVC
Duration : 1h 29mn
Bit rate : 8 995 Kbps
Width : 1 920 pixels
Height : 808 pixels
Display aspect ratio : 2.40:1
Frame rate mode : Constant
Frame rate : 23.976 fps
Color space : YUV
Chroma subsampling : 4:2:0
Bit depth : 8 bits
Scan type : Progressive
Bits/(Pixel*Frame) : 0.242
Stream size : 5.48 GiB (84%)
Writing library : x264 core 142 r2479 dd79a61
Encoding settings : cabac=1 / ref=5 / deblock=1:0:0 / analyse=0x3:0x133 / me=umh / subme=7 / psy=1 / psy_rd=1.00:0.00 / mixed_ref=1 / me_range=16 / chroma_me=1 / trellis=1 / 8x8dct=1 / cqm=0 / deadzone=21,11 / fast_pskip=0 / chroma_qp_offset=-2 / threads=18 / lookahead_threads=3 / sliced_threads=0 / nr=0 / decimate=1 / interlaced=0 / bluray_compat=0 / constrained_intra=0 / bframes=3 / b_pyramid=2 / b_adapt=1 / b_bias=0 / direct=1 / weightb=1 / open_gop=0 / weightp=2 / keyint=250 / keyint_min=23 / scenecut=40 / intra_refresh=0 / rc_lookahead=40 / rc=2pass / mbtree=1 / bitrate=8995 / ratetol=1.0 / qcomp=0.60 / qpmin=0 / qpmax=69 / qpstep=4 / cplxblur=20.0 / qblur=0.5 / ip_ratio=1.40 / aq=1:1.00
Language : English
Default : Yes
Forced : No

Audio
ID : 2
Format : DTS
Format/Info : Digital Theater Systems
Mode : 16
Format settings, Endianness : Big
Codec ID : A_DTS
Duration : 1h 29mn
Bit rate mode : Constant
Bit rate : 1 509 Kbps
Channel(s) : 6 channels
Channel positions : Front: L C R, Side: L R, LFE
Sampling rate : 48.0 KHz
Bit depth : 24 bits
Compression mode : Lossy
Stream size : 964 MiB (14%)
Language : English
Default : Yes
Forced : No

Text
ID : 3
Format : UTF-8
Codec ID : S_TEXT/UTF8
Codec ID/Info : UTF-8 Plain Text
Title : English-Forced
Language : English
Default : Yes
Forced : Yes

Menu
00:00:00.000 : en:00:00:00.000
00:05:26.368 : en:00:05:26.368
00:08:38.268 : en:00:08:38.268
00:15:45.903 : en:00:15:45.903
00:21:36.295 : en:00:21:36.295
00:26:05.397 : en:00:26:05.397
00:30:27.534 : en:00:30:27.534
00:37:36.254 : en:00:37:36.254
00:41:43.459 : en:00:41:43.459
00:47:32.558 : en:00:47:32.558
00:50:10.716 : en:00:50:10.716
00:55:32.496 : en:00:55:32.496
00:59:36.072 : en:00:59:36.072
01:02:08.099 : en:01:02:08.099
01:04:51.346 : en:01:04:51.346
01:07:14.030 : en:01:07:14.030
01:09:55.817 : en:01:09:55.817
01:12:26.133 : en:01:12:26.133
01:18:50.601 : en:01:18:50.601
01:22:31.572 : en:01:22:31.572