בין כוכבים
Interstellar.2014.720p.BluRay.x264.DTS-RARBG

בין כוכבים / Interstellar.2014.720p.BluRay.x264.DTS-RARBG

שם:
בין כוכבים
סוג:
וידאו
קטגוריה:
סרטים HD
גודל:
8.21 GB
זורעים:
0
מורידים:
0
הועלה ע"י
אנונימי
תאריך העלאה:
01.01.70 - 02:00
קבוצת חוקרים, אסטרונאוטים, יוצאת למסע בין כוכבי דרך חור תולעת חדש שהתגלה ומגיעים לממדים אלטרנטיביים במטרה למצוא כוכב לכת חדש ליישב בו את האנושות.
סרטו החדש של כריסטופר נולאן הוא סרט מדע בדיוני על מסע בחלל של חבורת חוקרים העוברים דרך "חור תולעת" למימד אחר. מבוסס על עובדות מדעיות ממשיות, הסרט יחקור את הצדדים המדהימים של החורים השחורים ואת כוח המשיכה, ויציג כמה מהתיאוריות המדעיות שאלברט איינשטיין ניסה להוכיח ללא הצלחה.

http://rarbg.com/Interstellar.2014.720p.BluRay.x264.DTS-RARBG
Screens:Info:
[mediainfo]
Video
ID : 1
Format : AVC
Format/Info : Advanced Video Codec
Format profile : High@L4.1
Format settings, CABAC : Yes
Format settings, ReFrames : 4 frames
Codec ID : V_MPEG4/ISO/AVC
Duration : 2h 49mn
Bit rate : 5 500 Kbps
Width : 1 280 pixels
Height : 720 pixels
Display aspect ratio : 16:9
Frame rate mode : Constant
Frame rate : 23.976 fps
Color space : YUV
Chroma subsampling : 4:2:0
Bit depth : 8 bits
Scan type : Progressive
Bits/(Pixel*Frame) : 0.249
Stream size : 6.26 GiB (76%)
Title : Interstellar.2014.720p.BluRay.x264.DTS-RARBG
Writing library : x264 core 142 r2495 6a301b6
Encoding settings : cabac=1 / ref=4 / deblock=1:-2:-2 / analyse=0x3:0x113 / me=umh / subme=7 / psy=1 / psy_rd=1.00:0.15 / mixed_ref=1 / me_range=16 / chroma_me=1 / trellis=1 / 8x8dct=1 / cqm=0 / deadzone=21,11 / fast_pskip=1 / chroma_qp_offset=-3 / threads=12 / lookahead_threads=3 / sliced_threads=0 / nr=0 / decimate=1 / interlaced=0 / bluray_compat=0 / constrained_intra=0 / bframes=3 / b_pyramid=2 / b_adapt=2 / b_bias=0 / direct=3 / weightb=1 / open_gop=0 / weightp=2 / keyint=250 / keyint_min=25 / scenecut=40 / intra_refresh=0 / rc_lookahead=50 / rc=abr / mbtree=1 / bitrate=5500 / ratetol=1.0 / qcomp=0.60 / qpmin=0 / qpmax=69 / qpstep=4 / vbv_maxrate=31250 / vbv_bufsize=31250 / nal_hrd=none / filler=0 / ip_ratio=1.40 / aq=1:1.00
Language : English
Default : Yes
Forced : No
Audio
ID : 2
Format : DTS
Format/Info : Digital Theater Systems
Mode : 16
Format settings, Endianness : Big
Codec ID : A_DTS
Duration : 2h 49mn
Bit rate mode : Constant
Bit rate : 1 509 Kbps
Channel(s) : 6 channels
Channel positions : Front: L C R, Side: L R, LFE
Sampling rate : 48.0 KHz
Bit depth : 24 bits
Compression mode : Lossy
Stream size : 1.78 GiB (22%)
Title : Interstellar.2014.720p.BluRay.x264.DTS-RARBG
Language : English
Default : Yes
Forced : No
Text
ID : 3
Format : UTF-8
Codec ID : S_TEXT/UTF8
Codec ID/Info : UTF-8 Plain Text
Language : English
Default : No
Forced : No
Menu
00:00:00.000 : en:Chapter 01
00:09:35.283 : en:Chapter 02
00:17:12.281 : en:Chapter 03
00:25:00.707 : en:Chapter 04
00:35:45.101 : en:Chapter 05
00:42:16.825 : en:Chapter 06
00:50:19.558 : en:Chapter 07
00:54:47.784 : en:Chapter 08
00:58:59.369 : en:Chapter 09
01:06:14.971 : en:Chapter 10
01:17:28.018 : en:Chapter 11
01:25:31.960 : en:Chapter 12
01:34:31.957 : en:Chapter 13
01:46:14.659 : en:Chapter 14
01:55:34.510 : en:Chapter 15
02:02:14.327 : en:Chapter 16
02:12:56.802 : en:Chapter 17
02:20:53.778 : en:Chapter 18
02:35:12.052 : en:Chapter 19
02:43:59.830 : en:Chapter 20
[/mediainfo]Notes:
We didnt crop the black bars because the movie has parts which are shot in IMAX , this making the height variable.
Greetz to all! :)