מהיר ועצבני 5 (2011)
Fast.and.Furious.5.Fast.Five.(2011).DVDRip.XviD-MAX

מהיר ועצבני 5 (2011) / Fast.and.Furious.5.Fast.Five.(2011).DVDRip.XviD-MAX

שם:
מהיר ועצבני 5 (2011)
סוג:
וידאו
קטגוריה:
סרטים DVDRip
גודל:
1.37 GiB
זורעים:
0
מורידים:
0
הועלה ע"י
roni
תאריך העלאה:
18.11.12 - 19:07

דומיניק (דיזל) ובריאן (ווקר) חוזרים לסרט חמישי בסדרה ושוב מסתבכים עם החוק ועולם הפשע. הפעם הם וחבריהם נגררים לתוך מאבק אלים עם סוחר סמים רצחני ובין היתר מצטרפים למרדף יחידת עילית של משטרת ברזיל ומפקדם הקשוח (רוק) הרודפים אחריהם במטרה לעצור אותם במשימתם.

 http://leetleech.org/images/73216101864405373579.jpg

Screens:

http://leetleech.org/images/16491271386257102310.jpg


http://leetleech.org/images/64433258392723956481.jpg


http://leetleech.org/images/26745064665155213512.jpg


http://leetleech.org/images/19413412545157638829.jpg


Alternative:

http://www.postimg.com/image/45000/photo-44609.jpg


http://www.postimg.com/image/45000/photo-44610.jpg


http://www.postimg.com/image/45000/photo-44611.jpg


http://www.postimg.com/image/45000/photo-44612.jpg


ScreenCaps:

http://www.postimg.com/image/45000/photo-44613.jpg


Fast and Furious 5 Fast Five (2011) DVDRip XviD-MAX

Format : AVI
Format/Info : Audio Video Interleave
Format profile : OpenDML
File size : 1.37 GiB
Duration : 2h 10mn
Overall bit rate : 1 500 Kbps
Movie name : Fast Five (2011)
Writing application : VirtualDubMod 1.5.10.2 (build 2542/release)
Writing library : VirtualDubMod build 2542/release
Original source form : MAX TORRENTZ
Copyright : SIGISMUNT

Video
ID : 0
Format : MPEG-4 Visual
Format profile : [email protected]
Format settings, BVOP : Yes
Format settings, QPel : No
Format settings, GMC : No warppoints
Format settings, Matrix : Custom
Codec ID : XVID
Codec ID/Hint : XviD
Duration : 2h 10mn
Bit rate : 1 047 Kbps
Width : 720 pixels
Height : 304 pixels
Display aspect ratio : 2.35:1
Frame rate : 23.976 fps
Resolution : 24 bits
Colorimetry : 4:2:0
Scan type : Progressive
Bits/(Pixel*Frame) : 0.199
Stream size : 976 MiB (70%)
Writing library : XviD 58

Audio
ID : 1
Format : AC-3
Format/Info : Audio Coding 3
Codec ID : 2000
Duration : 2h 10mn
Bit rate mode : Constant
Bit rate : 448 Kbps
Channel(s) : 6 channels
Channel positions : Front: L C R, Surround: L R, LFE
Sampling rate : 48.0 KHz
Stream size : 418 MiB (30%)
Alignment : Aligned on interleaves
Interleave, duration : 64 ms (1.53 video frames)
Interleave, preload duration : 192 ms

http://www.imdb.com/title/tt1596343/


Source: DVD (perfect a/v/sync quality,sample included)
This torrent is not seedbox supported,please seed it to the MAX

Note:If you have something to offer as early releases,seedboxes,links,accounts,etc
please contact us on piratepedia[@]msn/gmail.com or our website torentz 3xforum ro

Fast and Furious 5 Fast Five (2011) DVDRip XviD-MAX Torrent Free Download

http://thepiratebay.org/user/extremezone/0/7


How To Get Your Maxspeed (uTorrent)

Torrent Client - Preferences - Bandwidth - Number of connections - Set aprox. 500 for each
Torrent Client - Preferences - BiTorrent - Protocol Encryption - Forced
Bandwidth Allocation - High (Set download/upload limit - Unlimited)
Stop Other Active Torrents - Start downloading and wait for connections.
Enjoy and Seed for at least 1:1 ratio. Don't forget to say thanks/leave reviews.
Before downloading you should check/google search sample "release name""sample".
Greets to all actual/future p2p/scene QUALITY groups and affiliate websites.
Don't trust IMDb robot or bad ratings,always watch some trailers first.
Ignore stupid comments/fake/mislabeled/no-DVDrips/CAM/TS/RAR uploads.
Please spread this release/torrent to your friends/forums/etc.
If you need translation subs visit some subtitles sites.
Report if you see online streaming or other spam links.
Recommended movie player VLC PLAYER.