אקסודוס: אלים ומלכים
Exodus.Gods.and.Kings.2014.1080p.WEB-DL.DD5.1.H264-RARBG

אקסודוס: אלים ומלכים / Exodus.Gods.and.Kings.2014.1080p.WEB-DL.DD5.1.H264-RARBG

שם:
אקסודוס: אלים ומלכים
סוג:
וידאו
קטגוריה:
סרטים HD
גודל:
5.13 GB
זורעים:
0
מורידים:
0
הועלה ע"י
אנונימי
תאריך העלאה:
01.01.70 - 02:00
משה (כריסטיאן בייל) הוא מנהיג מתריס שמתקומם נגד פרעה המצרי רעמסס (ג'ואל אדגרטון), ומוציא 600,000 עבדים למסע היסטורי של בריחה ממצרים אל הארץ המובטחת.
תחת שרביט הבימוי של רידלי סקוט ('גלדיאטור', 'פרומתיאוס') מגיעה ההרפתקה האפית "אקסודוס", הסיפור על תעוזה ואומץ של איש אחד מול אימפריה שלמה. בעזרת שימוש בטכניקת התלת מימד, סקוט מביא חיים חדשים לסיפור של המנהיג המתריס משה (כריסטיאן בייל) כשהוא מתקומם נגד פרעה המצרי רעמסס (ג'ואל אדגרטון), ומוציא 600,000 עבדים למסע היסטורי של בריחה ממצרים בדרך לארץ המובטחת.

[mediainfo]
Video
ID : 1
Format : AVC
Format/Info : Advanced Video Codec
Format profile : High@L4.0
Format settings, CABAC : Yes
Format settings, ReFrames : 5 frames
Codec ID : V_MPEG4/ISO/AVC
Duration : 2h 30mn
Bit rate : 4 390 Kbps
Width : 1 916 pixels
Height : 796 pixels
Display aspect ratio : 2.40:1
Frame rate mode : Constant
Frame rate : 23.976 fps
Color space : YUV
Chroma subsampling : 4:2:0
Bit depth : 8 bits
Scan type : Progressive
Bits/(Pixel*Frame) : 0.120
Stream size : 4.62 GiB (90%)
Title : Exodus.Gods.and.Kings.2014.1080p.WEB-DL.DD5.1.H264-RARBG
Language : English
Default : Yes
Forced : No
Color primaries : BT.709
Transfer characteristics : BT.709
Matrix coefficients : BT.709
Color range : Limited
Audio
ID : 2
Format : AC-3
Format/Info : Audio Coding 3
Mode extension : CM (complete main)
Format settings, Endianness : Big
Codec ID : A_AC3
Duration : 2h 30mn
Bit rate mode : Constant
Bit rate : 384 Kbps
Channel(s) : 6 channels
Channel positions : Front: L C R, Side: L R, LFE
Sampling rate : 48.0 KHz
Bit depth : 16 bits
Compression mode : Lossy
Stream size : 414 MiB (8%)
Title : Exodus.Gods.and.Kings.2014.1080p.WEB-DL.DD5.1.H264-RARBG
Language : English
Default : Yes
Forced : No
Text
ID : 3
Format : UTF-8
Codec ID : S_TEXT/UTF8
Codec ID/Info : UTF-8 Plain Text
Language : English
Default : Yes
Forced : No
Menu
00:00:00.000 : en:Chapter 01
00:03:54.000 : en:Chapter 02
00:06:50.000 : en:Chapter 03
00:11:46.000 : en:Chapter 04
00:14:27.000 : en:Chapter 05
00:18:35.000 : en:Chapter 06
00:22:13.000 : en:Chapter 07
00:26:48.000 : en:Chapter 08
00:30:28.000 : en:Chapter 09
00:36:38.000 : en:Chapter 10
00:40:44.000 : en:Chapter 11
00:44:46.000 : en:Chapter 12
00:48:43.000 : en:Chapter 13
00:51:12.000 : en:Chapter 14
00:54:18.000 : en:Chapter 15
00:57:28.000 : en:Chapter 16
01:00:26.000 : en:Chapter 17
01:04:36.000 : en:Chapter 18
01:06:44.000 : en:Chapter 19
01:10:56.000 : en:Chapter 20
01:16:48.000 : en:Chapter 21
01:21:12.000 : en:Chapter 22
01:24:24.000 : en:Chapter 23
01:28:02.000 : en:Chapter 24
01:30:47.000 : en:Chapter 25
01:34:08.000 : en:Chapter 26
01:37:13.000 : en:Chapter 27
01:39:13.000 : en:Chapter 28
01:42:33.000 : en:Chapter 29
01:46:42.000 : en:Chapter 30
01:48:55.000 : en:Chapter 31
01:52:10.000 : en:Chapter 32
01:57:21.000 : en:Chapter 33
02:00:15.000 : en:Chapter 34
02:05:32.000 : en:Chapter 35
02:07:22.000 : en:Chapter 36
02:13:29.000 : en:Chapter 37
02:16:12.000 : en:Chapter 38
02:19:30.000 : en:Chapter 39
02:23:10.000 : en:Chapter 40
[/mediainfo]