מרדף עצבני
Drive.Angry.(2011).DVDRip.XviD-MAX

מרדף עצבני / Drive.Angry.(2011).DVDRip.XviD-MAX

שם:
מרדף עצבני
סוג:
וידאו
קטגוריה:
סרטים DVDRip
גודל:
1.56 GiB
זורעים:
0
מורידים:
0
הועלה ע"י
אנונימי
תאריך העלאה:
03.03.12 - 22:15

מילטון חוזר מהגיהינום כדי לנקום בכת האלימה אשר רצחה את בתו וחטפה את התינוקת שלה. הוא חובר לפייפר, מלצרית יפיפייה עם תת מקלע, אשר נמצאת אף היא בשיאו של מסע לגאולה משלה. בעוד הניצוד שלהם הוא מנהיג הכת האלימה, השניים הופכים לניצודים בעצמם. שליח מסתורי מטעם השטן רודף אחר מילטון במטרה להשיב אותו לגיהינום. השעון מתקתק.

 http://leetleech.org/images/77702060570006596097.jpg

Screens:

http://leetleech.org/images/21320216282713287500.jpg


http://leetleech.org/images/06103326608836809439.jpg


http://leetleech.org/images/31438609335214534705.jpg


http://leetleech.org/images/12813791345369054118.jpg


http://leetleech.org/images/71343978571928759687.jpg


Alternative:

http://www.postimg.com/image/37000/photo-36268.jpg


http://www.postimg.com/image/37000/photo-36269.jpg


http://www.postimg.com/image/37000/photo-36270.jpg


http://www.postimg.com/image/37000/photo-36271.jpg


http://www.postimg.com/image/37000/photo-36272.jpg


ScreenCaps:

http://www.postimg.com/image/37000/photo-36273.jpg


Drive Angry (2011) DVDRip XviD-MAX
Format : AVI
Format/Info : Audio Video Interleave
Format profile : OpenDML
File size : 1.55 GiB
Duration : 1h 44mn
Overall bit rate : 2 126 Kbps
Writing application : VirtualDubMod 1.5.10.2 (build 2542/release)
Writing library : VirtualDubMod build 2542/release
Original source form : MAX TORRENTZ
Copyright : SIGISMUNT

Video
ID : 0
Format : MPEG-4 Visual
Format profile : AdvancedSimple@L5
Format settings, BVOP : Yes
Format settings, QPel : No
Format settings, GMC : No warppoints
Format settings, Matrix : Custom
Codec ID : XVID
Codec ID/Hint : XviD
Duration : 1h 44mn
Bit rate : 1 737 Kbps
Width : 720 pixels
Height : 400 pixels
Display aspect ratio : 16:9
Frame rate : 23.976 fps
Resolution : 24 bits
Colorimetry : 4:2:0
Scan type : Progressive
Bits/(Pixel*Frame) : 0.252
Stream size : 1.27 GiB (82%)
Writing library : XviD 58

Audio
ID : 1
Format : AC-3
Format/Info : Audio Coding 3
Codec ID : 2000
Duration : 1h 44mn
Bit rate mode : Constant
Bit rate : 384 Kbps
Channel(s) : 6 channels
Channel positions : Front: L C R, Surround: L R, LFE
Sampling rate : 48.0 KHz
Stream size : 287 MiB (18%)
Alignment : Aligned on interleaves
Interleave, duration : 64 ms (1.53 video frames)
Interleave, preload duration : 192 ms

http://www.imdb.com/title/tt1502404/


Source: Original DVD+AC3 audio (perfect a/v/sync quality , sample included)
Thanks for waiting a better encode than DEFACED 700mb low quality

Note:If you have something to offer as early releases,seedboxes,
links,accounts,etc please contact us on torentz 3xforum ro
This torrent is not seedbox supported so please seed it to the MAX

Drive Angry (2011) DVDRip XviD-MAX Torrent Free Download

http://thepiratebay.org/user/extremezone/0/7


How To Get Your Maxspeed (uTorrent)

Torrent Client - Preferences - Bandwidth - Number of connections - Set aprox. 500 for each
Torrent Client - Preferences - BiTorrent - Protocol Encryption - Forced
Bandwidth Allocation - High (Set download/upload limit - Unlimited)
Stop Other Active Torrents - Start downloading and wait for connections.
Enjoy and Seed for at least 1:1 ratio. Don't forget to say thanks/leave reviews.
Before downloading you should check/google search sample "release name""sample".
Greets to all actual/future p2p/scene QUALITY groups and affiliate websites.
Don't trust IMDb robot or bad ratings,always watch some trailers first.
Ignore stupid comments/fake/mislabeled/no-DVDrips/CAM/TS/RAR uploads.
Please spread this release/torrent to your friends/forums/etc.
If you need translation subs visit some subtitles sites.
Report if you see online streaming or other spam links.
Recommended movie player VLC PLAYER.