מתנקש בבריחה
Assassins.Run.2013.DVDRip.XviD-NOSCREENS

מתנקש בבריחה / Assassins.Run.2013.DVDRip.XviD-NOSCREENS

שם:
מתנקש בבריחה
סוג:
וידאו
קטגוריה:
סרטים DVDRip
גודל:
699.79 MiB
זורעים:
0
מורידים:
0
הועלה ע"י
אנונימי
תאריך העלאה:
06.05.13 - 18:17
כריסטיאן סלייטר, בתפקיד מצליחן אמריקאי המנהל את עסקי זיקוק הנפט שלו ברוסיה, חיי חיים מושלמים לצד אשתו הבלרינה היפהפייה והמוערכת ובתם הקטנה. עד לאותו רגע בו הוא ושותפיו נרצחים: אשתו מנושלת מנכסיה, מופללת ומושלכת לכלא, ובתה נחטפת. כל זאת במטרה לגלות היכן נמצאים שטרי חוב בשווי אדיר, שהיו ברשות בעלה המנוח. מכאן מתחיל מרדף של המאפיה הרוסית אחריה ואחר אותם שטרי חוב, כשלא ברור מי מושך בחוטים.
 
http://www.imdb.com/title/tt1502417/



Plot: Maya, a beautiful Russian ballerina, is pursued by the Russian mafia after they kill her husband, a successful American businessman, and financial documents worth hundreds of millions of dollars go missing. Maya is framed by corrupt cops and imprisoned, and then when she is due to be released, her daughter is kidnapped, and she must fight to save her life. However, those who seem to be her friends may really be her enemies...


Director:
Robert Crombie

Stars:
Christian Slater, Sofya Skya, Cole Hauser

Genres:
Action | Crime | Thriller

Country:
USA | Russia

Language:
English



Format : AVI
Format/Info : Audio Video Interleave
File size : 700 MiB
Duration : 1h 28mn
Overall bit rate mode : Variable
Overall bit rate : 1 110 Kbps
Writing application : VirtualDubMod 1.5.10.2 (build 2540/release)
Writing library : VirtualDubMod build 2540/release

Video
ID : 0
Format : MPEG-4 Visual
Format profile : Advanced [email protected]
Format settings, BVOP : 1
Format settings, QPel : No
Format settings, GMC : No warppoints
Format settings, Matrix : Default (MPEG)
Codec ID : XVID
Codec ID/Hint : XviD
Duration : 1h 28mn
Bit rate : 969 Kbps
Width : 640 pixels
Height : 352 pixels
Display aspect ratio : 16:9
Frame rate : 23.976 fps
Color space : YUV
Chroma subsampling : 4:2:0
Bit depth : 8 bits
Scan type : Progressive
Compression mode : Lossy
Bits/(Pixel*Frame) : 0.179
Stream size : 610 MiB (87%)
Writing library : XviD 1.2.1 (UTC 2008-12-04)

Audio
ID : 1
Format : MPEG Audio
Format version : Version 1
Format profile : Layer 3
Mode : Joint stereo
Mode extension : MS Stereo
Codec ID : 55
Codec ID/Hint : MP3
Duration : 1h 28mn
Bit rate mode : Variable
Bit rate : 128 Kbps
Channel(s) : 2 channels
Sampling rate : 48.0 KHz
Compression mode : Lossy
Stream size : 81.3 MiB (12%)
Alignment : Aligned on interleaves
Interleave, duration : 24 ms (0.58 video frame)
Interleave, preload duration : 142 ms
Writing library : LAME3.90.
Encoding settings : -m j -V 4 -q 2 -lowpass 17.6 --abr 128



http://www.shotpix.com/images/23348037851812836928.png
http://www.shotpix.com/images/59070532203973990026.png
http://www.shotpix.com/images/64916865402410489930.png
http://www.shotpix.com/images/37291271316095470757.png
http://www.shotpix.com/images/92859640060430894281.png